迷与狂 Unforgettable Blast 2015 1080p WEBRip x264 AC3-SeeHD 中英

分享到:

《迷与狂》海报

◎译 名 迷与狂

◎片 名 Unforgettable Blast

◎年 代 2015-05-22(中国大陆)

◎国 家 中国大陆

◎类 别 喜剧

◎语 言 汉语普通话

◎字 幕 中英字幕

◎IMDB评分 N/A

◎IMDB链接 N/A

◎文件格式 X264 + AC3

◎视频尺寸 1920x816

◎文件大小 1CD 1.81GiB

◎片 长 95分钟

◎导 演 颜廷录 Tinglu Yan

◎主 演    姜潮 Jo   叶肃

蒋雪鸣 Xue Ming Jiang   张一闲

王厦     Xia Wang       黄大中

杨清     Qing Yang       李雨馨

骆佳     Jialuo       傅总

蒋毅泓     Yihong Jiang       华哥

雷迪     Di Lei       张小丹

李桂莲     Guilian Li       王大婶

钟世岩     Shiyan Zhong       市场张经理

李靖     Jing Li       经理

于珂伊     Keyi Yu       招聘专员

马慧     Hui Ma       职员

刘婷驿     Tingyi Liu       小姐

王东伟     Dongwei Wang       劫匪

杨可心     Kexin Yang       叶肃爸

郭惠政     Huizheng Guo       叶肃妈

韩一思     Yisi Han       王大婶儿子

郑招凡     Zhaofan Zheng       土豪小平头

迷与狂剧情介绍:

  叶肃(姜潮 饰),张一闲(蒋雪鸣 饰),黄大中(王厦 饰)为了爱情与梦想,毕业后决定留在大城市打拼,他们相信凭借自己的学历和聪明才智一定会闯出一片天地,于是开始了投简历,面试,被拒,再投简历,再面试……的生活。现实是残酷无奈的,虽然找到了工作,但却不是想象中的那样,被老板骂,被同事调侃,早出晚归却依然不能够让老板满意……但是他们依然意气风发,斗志昂扬,提案,重组团队,加班陪客户,乘坐末班公交车……当一切看似走上正轨,却出现各种变故,叶肃被富二代女朋友劈腿并为了尊严辞职,张一闲被炒鱿鱼,黄大中为了友情裸辞……

  在经过应聘、上班、辞职等一系列现实与内心的挣扎后,三位好基友决定自己决定自己的前途,于是化身“奇葩甘蔗男”开始了创业之路……

General

Format                  : Matroska

Format version           : Version 4 / Version 2

File size                : 1.81 GiB

Duration               : 1h 35mn

Overall bit rate           : 2 708 Kbps

Encoded date              : UTC 2015-06-18 02:45:40

Writing application         : mkvmerge v7.1.0 ('Good Love') 32bit built on Jul 27 2014 12:59:18

Writing library            : libebml v1.3.0 + libmatroska v1.4.1

DURATION               : 01:35:43.700000000

NUMBER_OF_FRAMES           : 164907

NUMBER_OF_BYTES            : 459495972

_STATISTICS_WRITING_APP     : mkvmerge v7.1.0 ('Good Love') 32bit built on Jul 27 2014 12:59:18

_STATISTICS_WRITING_DATE_UTC   : 2015-06-18 02:45:40

_STATISTICS_TAGS           : BPS DURATION NUMBER_OF_FRAMES NUMBER_OF_BYTES

Video

ID                   : 1

Format                  : AVC

Format/Info             : Advanced Video Codec

Format profile           : [email protected]

Format settings, CABAC       : Yes

Format settings, ReFrames     : 3 frames

Codec ID               : V_MPEG4/ISO/AVC

Duration               : 1h 35mn

Bit rate               : 2 014 Kbps

Width                 : 1 920 pixels

Height                  : 816 pixels

Display aspect ratio       : 2.35:1

Frame rate mode            : Constant

Frame rate               : 25.000 fps

Color space             : YUV

Chroma subsampling          : 4:2:0

Bit depth                : 8 bits

Scan type                : Progressive

Bits/(Pixel*Frame)          : 0.051

Stream size             : 1.35 GiB (74%)

Default                 : Yes

Forced                  : No

Audio

ID                   : 2

Format                  : AC-3

Format/Info             : Audio Coding 3

Mode extension           : CM (complete main)

Format settings, Endianness    : Big

Codec ID               : A_AC3

Duration               : 1h 35mn

Bit rate mode             : Constant

Bit rate               : 640 Kbps

Channel(s)               : 2 channels

Channel positions         : Front: L R

Sampling rate             : 44.1 KHz

Bit depth                : 16 bits

Compression mode           : Lossy

Stream size             : 438 MiB (24%)

Default                 : Yes

Forced                  : No

迷与狂影片截图:

迷与狂下载地址:

注意:磁力链接请使用迅雷QQ旋风BitComet等下载软件打开下载。
如果上方未显示《迷与狂》下载链接,说明该资源受到用户投诉或者受版权方要求保护,不提供分享下载。
无极电影
  • 导航菜单
  • 热门榜单
猜你喜欢

本期喜剧片排行