[希波克拉底/医手遮天] Hippocrate.2014.FRENCH.1080p.BluRay.x264-ROUGH 7.64G

分享到:

《希波克拉底》海报

◎译 名 希波克拉底/医手遮天(台)

◎片 名 Hippocrate

◎年 代 2014

◎国 家 法国

◎类 别 喜剧/剧情

◎语 言 英语/法语

◎字 幕 N/A

◎IMDB评分 6.9/10 from 408 users

◎文件格式 X264 + DTS

◎视频尺寸 1920 x 808

◎文件大小 7.64 GiB

◎片 长 1h 41mn

◎导 演 托马斯·利迪

◎主 演 文森特·拉科斯特

雅克·甘布林

Reda Kateb

希波克拉底剧情介绍:

  导演多玛斯黎提以写实笔触,完成一幅明快的医院素描,英文片名〈Hippocrate〉意指希腊古代名医希波克拉底,然而不论先圣精神能否体现于这个时代,班杰明只确知人生课题的漫长实习,眼前仅是初阶版。

  立志从医的班杰明,终于在父亲工作的医院得到实习机会。他从未想过,这会是震撼教育的开端。紧急救护的压力、多变难明的病征,让班杰明对自己的能力产生动摇。一次值班,因器材疏漏与经验不足,班杰明首次历经病人死亡。

  面对家属质疑,班杰明下意识将过错推给同仁,他的父亲更动用权力掩盖真相。白色巨塔的残酷,在怀抱梦想的青年身上赤裸验证。班杰明终于意识到,医生对他人生命的责任,远超过「医德」两字能负载。在内外压力双重挤压之下,班杰明决定豁出去挑战医疗巨兽,找回梦想初衷!

Unique ID  : 198540183959327197909761474767080353973 (0x955D72D3DABB122BAAD40C0F537370B5)

Complete name  : K:\Hippocrate.2014.FRENCH.1080p.BluRay.x264-ROUGH.mkv

Format  : Matroska

Format version  : Version 4 / Version 2

File size  : 7.64 GiB

Duration  : 1h 41mn

Overall bit rate  : 10.7 Mbps

Encoded date  : UTC 2015-01-02 21:34:39

Writing application  : mkvmerge v6.8.0 ('Theme for Great Cities') 64bit built on Mar  2 2014 21:34:26

Writing library  : libebml v1.3.0 + libmatroska v1.4.1

Video

ID  : 1

Format  : AVC

Format/Info  : Advanced Video Codec

Format profile  : [email protected]

Format settings, CABAC  : Yes

Format settings, ReFrames  : 5 frames

Codec ID  : V_MPEG4/ISO/AVC

Duration  : 1h 41mn

Bit rate  : 9 234 Kbps

Width  : 1 920 pixels

Height  : 808 pixels

Display aspect ratio  : 2.40:1

Frame rate mode  : Constant

Frame rate  : 23.976 fps

Color space  : YUV

Chroma subsampling  : 4:2:0

Bit depth  : 8 bits

Scan type  : Progressive

Bits/(Pixel*Frame)  : 0.248

Stream size  : 6.41 GiB (84%)

Writing library  : x264 core 144 r2525 40bb568

Encoding settings  : cabac=1 / ref=5 / deblock=1:0:0 / analyse=0x3:0x113 / me=umh / subme=8 / psy=1 / psy_rd=1.00:0.00 / mixed_ref=1 / me_range=16 / chroma_me=1 / trellis=1 / 8x8dct=1 / cqm=0 / deadzone=21,11 / fast_pskip=0 / chroma_qp_offset=-2 / threads=18 / lookahead_threads=3 / sliced_threads=0 / nr=0 / decimate=1 / interlaced=0 / bluray_compat=0 / constrained_intra=0 / bframes=3 / b_pyramid=2 / b_adapt=1 / b_bias=0 / direct=1 / weightb=1 / open_gop=0 / weightp=2 / keyint=250 / keyint_min=23 / scenecut=40 / intra_refresh=0 / rc_lookahead=40 / rc=2pass / mbtree=1 / bitrate=9234 / ratetol=1.0 / qcomp=0.60 / qpmin=0 / qpmax=69 / qpstep=4 / cplxblur=20.0 / qblur=0.5 / ip_ratio=1.40 / aq=1:1.00

Language  : English

Default  : Yes

Forced  : No

Audio

ID  : 2

Format  : DTS

Format/Info  : Digital Theater Systems

Mode  : 16

Format settings, Endianness  : Big

Codec ID  : A_DTS

Duration  : 1h 41mn

Bit rate mode  : Constant

Bit rate  : 1 509 Kbps

Channel count  : 6 channels

Channel positions  : Front: L C R, Side: L R, LFE

Sampling rate  : 48.0 KHz

Bit depth  : 24 bits

Compression mode  : Lossy

Stream size  : 1.07 GiB (14%)

Language  : French

Default  : Yes

Forced  : No

Menu

00:00:00.000  : en:00:00:00.000

00:10:31.172  : en:00:10:31.172

00:20:53.794  : en:00:20:53.794

00:31:34.601  : en:00:31:34.601

00:42:23.291  : en:00:42:23.291

00:52:46.038  : en:00:52:46.038

01:03:44.279  : en:01:03:44.279

01:12:18.167  : en:01:12:18.167

01:20:58.228  : en:01:20:58.228

01:29:58.018  : en:01:29:58.018

01:38:12.929  : en:01:38:12.929

希波克拉底下载地址:

注意:磁力链接请使用迅雷QQ旋风BitComet等下载软件打开下载。
如果上方未显示《希波克拉底》下载链接,说明该资源受到用户投诉或者受版权方要求保护,不提供分享下载。
无极电影
  • 导航菜单
  • 热门榜单
猜你喜欢

本期喜剧片排行