[杀手们]Killers.2014.1080p.BluRay.x264.DTS-RARBG 日语[BT种子下载]

分享到:

《杀手们》海报

◎译 名 杀手们

◎片 名 Killers

◎年 代 2014

◎国 家 印尼/日本

◎类 别 惊悚/恐怖

◎语 言 日语

◎字 幕 N/A

◎IMDB评分 7.1/10 from 1,175 users

◎文件格式 X264 + DTS

◎视频尺寸 1920 x 816

◎文件大小 1CD 12.2 GiB

◎片 长 2h 17mn

◎导 演 Kimo Stamboel/提莫·塔哈亚托

◎主 演 北村一辉

奥卡·安塔拉

高梨临

Ray Sahetap

杀手们剧情介绍:

  一位错手杀人的印尼记者和一位日本的连环杀手,在线上偶遇,展开一场变态的杀戮比拼,“我们杀人只是因为我们可以,下一个是谁?”影片入围今年圣丹斯电影节午夜展映单元,由Mo兄弟执导,印尼演员Oka Antara和日本演员北村一辉主演。

  日本东京,野村(北村一辉 饰)用摄像机拍摄下处刑室内柔弱女性被残忍虐杀的全过程,经剪辑后上传网络。某个夜晚,他偶遇年龄相差较多的久惠(高梨临 饰)姐弟,野村对久惠产生了兴趣,此后每天访问这个女孩工作的花店。他的出现让久惠重现笑容,并渐渐敞开心扉。

  印尼雅加达,充满正义感的自由记者巴由(Oka Antara 饰)致力于揭露当权者贪污的事实,却陷入对方设下的陷阱,生活由此落入前所未有的困境之中。某天他意外看到野村的视频,嫌恶之余却有危险的欲望在心底萌生。他偶然杀死一名持枪匪徒,并将匪徒的尸体拍摄下来发布网上。远在东京的野村看到这段视频,直觉意识到同道中人的存在。两个身处不同城市的猎者,开始了最为凶险的接触……

本片首周初登场观众满意度排名第九位

[hide]Killers.2014.1080p.BluRay.x264.DTS-RARBG

Video

ID  : 1

Format  : AVC

Format/Info  : Advanced Video Codec

Format profile  : [email protected]

Format settings, CABAC  : Yes

Format settings, ReFrames  : 4 frames

Codec ID  : V_MPEG4/ISO/AVC

Duration  : 2h 17mn

Bit rate  : 11.5 Mbps

Width  : 1 920 pixels

Height  : 816 pixels

Display aspect ratio  : 2.35:1

Frame rate mode  : Constant

Frame rate  : 23.976 fps

Color space  : YUV

Chroma subsampling  : 4:2:0

Bit depth  : 8 bits

Scan type  : Progressive

Bits/(Pixel*Frame)  : 0.306

Stream size  : 10.6 GiB (86%)

Title  : Killers.2014.1080p.BluRay.x264.DTS-RARBG

Writing library  : x264 core 142 r2479 dd79a61

Encoding settings  : cabac=1 / ref=4 / deblock=1:0:0 / analyse=0x3:0x113 / me=umh / subme=8 / psy=1 / psy_rd=1.00:0.00 / mixed_ref=1 / me_range=16 / chroma_me=1 / trellis=1 / 8x8dct=1 / cqm=0 / deadzone=21,11 / fast_pskip=1 / chroma_qp_offset=-2 / threads=12 / lookahead_threads=2 / sliced_threads=0 / nr=0 / decimate=1 / interlaced=0 / bluray_compat=0 / constrained_intra=0 / bframes=3 / b_pyramid=2 / b_adapt=2 / b_bias=0 / direct=3 / weightb=1 / open_gop=0 / weightp=2 / keyint=240 / keyint_min=24 / scenecut=40 / intra_refresh=0 / rc_lookahead=50 / rc=abr / mbtree=1 / bitrate=11500 / ratetol=1.0 / qcomp=0.60 / qpmin=0 / qpmax=69 / qpstep=4 / vbv_maxrate=62500 / vbv_bufsize=78125 / nal_hrd=none / filler=0 / ip_ratio=1.40 / aq=1:1.00

Default  : Yes

Forced  : No

Color primaries  : BT.709

Transfer characteristics  : BT.709

Matrix coefficients  : BT.709

Audio

ID  : 4

Format  : DTS

Format/Info  : Digital Theater Systems

Mode  : 16

Format settings, Endianness  : Big

Codec ID  : A_DTS

Duration  : 2h 17mn

Bit rate mode  : Constant

Bit rate  : 1 509 Kbps

Channel(s)  : 6 channels

Channel positions  : Front: L C R, Side: L R, LFE

Sampling rate  : 48.0 KHz

Bit depth  : 16 bits

Compression mode  : Lossy

Stream size  : 1.45 GiB (12%)

Title  : Killers.2014.1080p.BluRay.x264.DTS-RARBG

Language  : Japanese

Default  : Yes

Forced  : No

Text #1

ID  : 2

Format  : PGS

Muxing mode  : zlib

Codec ID  : S_HDMV/PGS

Codec ID/Info  : The same subtitle format used on BDs/HD-DVDs

Language  : English

Default  : No

Forced  : No

Text #2

ID  : 3

Format  : PGS

Muxing mode  : zlib

Codec ID  : S_HDMV/PGS

Codec ID/Info  : The same subtitle format used on BDs/HD-DVDs

Language  : English

Default  : No

Forced  : No

Menu

00:00:00.000  : :Chapter 1

00:07:09.888  : :Chapter 2

00:20:39.697  : :Chapter 3

00:29:59.381  : :Chapter 4

00:38:37.607  : :Chapter 5

00:50:07.463  : :Chapter 6

01:00:59.990  : :Chapter 7

01:20:13.684  : :Chapter 8

01:32:58.740  : :Chapter 9

01:44:42.568  : :Chapter 10

01:58:22.679  : :Chapter 11

02:13:53.442  : :Chapter 12[/hide]

杀手们下载地址:

注意:磁力链接请使用迅雷QQ旋风BitComet等下载软件打开下载。
如果上方未显示《杀手们》下载链接,说明该资源受到用户投诉或者受版权方要求保护,不提供分享下载。
猜你喜欢

本期惊悚片排行