猎鹰突起/猎鹰上升.Falcon.Rising.2014.1080p.WEB-DL.DD5.1.H264-RARBG

分享到:

《猎鹰突起》海报

◎译 名 猎鹰突起/猎鹰上升

◎片 名 Falcon Rising

◎年 代 2014

◎国 家 美国

◎类 别 动作/冒险

◎语 言 英语

◎字 幕 英文

◎IMDB评分 6.7/10 from 40 users

◎文件格式 H264 + DD5.1

◎视频尺寸 1920 x 1028

◎文件大小 1CD 3.84 GiB

◎片 长 1h 40mn

◎导 演 厄尼·巴巴拉什

◎主 演 迈克尔·加·怀特

尼尔·麦克唐纳

拉蒂夫·克劳德

Laila Ali

Hazuki Kato

Masashi Odate

Jazmín Caratini

Robert Colon

猎鹰突起剧情介绍:

  影片讲述迈克尔·加·怀特饰演的“猎鹰”查普曼,为妹妹报仇,血洗巴西贫民窟的故事。

  迈克尔·加·怀特扮演的退伍海军陆战队士兵查普曼,被描述为一位“黑暗的反英雄”,被罪恶感和创伤后应激障碍(PTSD)折磨。本片中,他的妹妹作为慈善组织成员前往巴西贫民窟工作,却遭残忍杀害,曝尸街头。查普曼遂飞往圣保罗,追踪杀害妹妹的凶手,控制贫民窟的日本黑帮海外势力,以孤胆英雄之姿,一人展开血战。

Falcon.Rising.2014.1080p.WEB-DL.DD5.1.H264-RARBG

Video

ID  : 1

Format  : AVC

Format/Info  : Advanced Video Codec

Format profile  : [email protected]

Format settings, CABAC  : Yes

Format settings, ReFrames  : 4 frames

Codec ID  : V_MPEG4/ISO/AVC

Duration  : 1h 40mn

Bit rate  : 4 949 Kbps

Width  : 1 920 pixels

Height  : 1 028 pixels

Display aspect ratio  : 1.85:1

Frame rate mode  : Constant

Frame rate  : 23.976 fps

Color space  : YUV

Chroma subsampling  : 4:2:0

Bit depth  : 8 bits

Scan type  : Progressive

Bits/(Pixel*Frame)  : 0.105

Stream size  : 3.49 GiB (91%)

Title  : Falcon.Rising.2014.1080p.WEB-DL.DD5.1.H264-RARBG

Language  : English

Default  : Yes

Forced  : No

Color primaries  : BT.709

Transfer characteristics  : BT.709

Matrix coefficients  : BT.709

Audio

ID  : 2

Format  : AC-3

Format/Info  : Audio Coding 3

Mode extension  : CM (complete main)

Format settings, Endianness  : Big

Codec ID  : A_AC3

Duration  : 1h 40mn

Bit rate mode  : Constant

Bit rate  : 384 Kbps

Channel(s)  : 6 channels

Channel positions  : Front: L C R, Side: L R, LFE

Sampling rate  : 48.0 KHz

Bit depth  : 16 bits

Compression mode  : Lossy

Stream size  : 277 MiB (7%)

Title  : Falcon.Rising.2014.1080p.WEB-DL.DD5.1.H264-RARBG

Language  : English

Default  : Yes

Forced  : No

Text

ID  : 3

Format  : UTF-8

Codec ID  : S_TEXT/UTF8

Codec ID/Info  : UTF-8 Plain Text

Language  : English

Default  : Yes

Forced  : No

Menu

00:00:00.000  : en:1

00:11:30.000  : en:2

00:24:35.000  : en:3

00:34:28.000  : en:4

00:44:48.000  : en:5

00:55:28.000  : en:6

01:06:32.000  : en:7

01:16:01.000  : en:8

01:30:53.000  : en:9

01:35:44.000  : en:10

《猎鹰突起》剧照-1《猎鹰突起》剧照-2

《猎鹰突起》剧照-3《猎鹰突起》剧照-4

《猎鹰突起》剧照-5《猎鹰突起》剧照-6

猎鹰突起下载地址:

注意:磁力链接请使用迅雷QQ旋风BitComet等下载软件打开下载。
如果上方未显示《猎鹰突起》下载链接,说明该资源受到用户投诉或者受版权方要求保护,不提供分享下载。
无极电影
  • 导航菜单
  • 热门榜单
猜你喜欢

本期动作片排行