冰雪奇缘/白雪皇后/魔雪奇缘(港)Frozen.2013.DVDSCR.x264.AC3-SmY 中文

分享到:

《冰雪奇缘》海报

◎译 名 冰雪奇缘/白雪皇后/冰雪皇后/冰雪奇缘/冰雪大冒险/魔雪奇缘(港)

◎片 名 Frozen

◎年 代 2013

◎国 家 美国

◎类 别 动画/冒险/喜剧/家庭/奇幻

◎语 言 英语

◎字 幕 中文

◎IMDB评分 8.1/10 from 7,037 users

◎文件格式 x264 + AC3

◎视频尺寸 720 x 320

◎文件大小 1.72GB

◎片 长 100min

◎导 演 克里斯·巴克 Chris Buck

◎主 演 克里斯汀·贝尔 Kristen Bell ….安娜 Anna (voice)

伊迪娜·门泽尔 Idina Menzel ….艾莎 Snow Queen (voice)

乔纳森·格罗夫 Jonathan Groff ….克里斯托夫 Kristoff (voice)

乔什·盖德 Josh Gad ….奥拉夫 Olaf (voice)

圣蒂诺·方塔纳 Santino Fontana ….汉斯 Prince Hans (voice)

冰雪奇缘剧情介绍:

  《Frozen》讲述一个诅咒令王国被冰天雪地永久覆盖,乐观无畏的安娜(由克里斯汀·贝尔配音)和一个大胆的山民克里斯托弗以及陪伴他左右的驯鹿斯文组队出发

  ,遭遇了喜马拉雅山般的极端气候、神秘的生物与无处不在的魔法,不但为了寻到安娜的姐姐——冰雪皇后埃尔莎(由埃蒂纳·曼泽尔配音),更希望能破除冰封魔咒,拯救王国

免遭灭顶之灾。

Format : Matroska

File size : 1.72 GiB

Duration : 1h 40mn

Overall bit rate : 2 444 Kbps

Encoded date : UTC 2010-02-22 21:41:31

Writing application : mkvmerge v5.9.0 ('On The Loose') built on Dec 9 2012 15:37:01

Writing library : libebml v1.3.0 + libmatroska v1.4.0

Video #1

ID : 1

Format : AVC

Format/Info : Advanced Video Codec

Format profile : [email protected]

Format settings, CABAC : Yes

Format settings, ReFrames : 4 frames

Muxing mode : Container [email protected]

Codec ID : V_MPEG4/ISO/AVC

Duration : 1h 40mn

Bit rate : 1 947 Kbps

Nominal bit rate : 2 000 Kbps

Width : 720 pixels

Height : 320 pixels

Display aspect ratio : 2.25:1

Frame rate : 23.976 fps

Resolution : 8 bits

Colorimetry : 4:2:0

Scan type : Progressive

Bits/(Pixel*Frame) : 0.353

Stream size : 1.37 GiB (80%)

Writing library : x264 core 116 r2074 2641b9e

Audio #2

ID : 2

Format : AC-3

Format/Info : Audio Coding 3

Codec ID : A_AC3

Duration : 1h 40mn

Bit rate mode : Constant

Bit rate : 448 Kbps

Channel(s) : 6 channels

Channel positions : Front: L C R, Surround: L R, LFE

Sampling rate : 48.0 KHz

Video delay : 31ms

Stream size : 323 MiB (18%)

IMDb: Anna, a fearless optimist, sets off on an epic journey - teaming up with rugged mountain man Kristoff and his loyal reindeer Sven - to find her sister Elsa, whose icy powers have trapped the kingdom of Arendelle in eternal winter. Encountering Everest-like conditions, mystical trolls and a hilarious snowman named Olaf, Anna and Kristoff battle the elements in a race to save the kingdom. From the outside Anna's sister, Elsa looks poised, regal and reserved, but in reality, she lives in fear as she wrestles with a mighty secret-she was born with the power to create ice and snow. It's a beautiful ability, but also extremely dangerous. Haunted by the moment her magic nearly killed her younger sister Anna, Elsa has isolated herself, spending every waking minute trying to suppress her growing powers. Her mounting emotions trigger the magic, accidentally setting off an eternal winter that she can't stop. She fears she's becoming a monster and that no one, not even her sister, can help her. 冰雪奇缘影片截图:

冰雪奇缘下载地址:

注意:磁力链接请使用迅雷QQ旋风BitComet等下载软件打开下载。
如果上方未显示《冰雪奇缘》下载链接,说明该资源受到用户投诉或者受版权方要求保护,不提供分享下载。
猜你喜欢

本期喜剧片排行