[敲敲门].Knock.Knock.2015.BluRay.720p.x264.AC3-Y4DG[中英文字幕]

分享到:

《敲敲门》海报

◎片 名 Knock Knock

◎译 名 敲敲门/当辣妹来敲门(台)/半夜女敲门(港)/危险拜访/扣扣

◎年 代 2015

◎国 家 智利/美国

◎类 别 惊悚/恐怖

◎语 言 英语

◎字 幕 中英字幕

◎IMDb评分  5.1/10 from 13,284 users

◎片 长 99分钟

◎导 演 伊莱·罗斯 Eli Roth

◎主 演 安娜·德·阿玛斯 Ana de Armas

洛伦扎·伊佐 Lorenza Izzo

亚伦·伯恩斯 Aaron Burns

基努·里维斯 Keanu Reeves

伊格纳西·阿尔曼德 Ignacia Allamand

考林·加普 Colleen Camp

敲敲门剧情介绍:

  事业有成的建筑师伊凡,他的美满生活令人羡慕──不但拥有美貌娇妻与可爱的孩子,还坐拥一栋城堡般的华丽豪宅。在他人眼中,伊凡是一位再幸福不过的新好男人和模范父亲,没想到这样平静的生活却不持久……

  在一个大雨滂沱的周末夜晚,两名衣衫湿透的年轻辣妹出现在伊凡家门口,原本以为是从天而降的艳遇,之后的展开却将他美梦般的生活,狠狠变为宛如地狱的生猛噩梦。

General

Unique ID                      : 182074174838521390906704849941827424264 (0x88FA35E616772ED097D16700CB3C1008)

  Complete name                  : D:MKV影片压制&惊鸿一面敲敲门.2015.中英字幕£Y4DG惊鸿一面[敲敲门].Knock.Knock.2015.BluRay.720p.x264.AC3-Y4DG.mkv

Format                         : Matroska

Format version                 : Version 4 / Version 2

File size                      : 3.22 GiB

Duration                       : 1h 39mn

Overall bit rate               : 4 646 Kbps

Encoded date                   : UTC 2016-01-02 07:10:20

Writing application            : mkvmerge v7.1.0 ('Good Love') 64bit built on Jul 27 2014 13:06:55

Writing library                : libebml v1.3.0 + libmatroska v1.4.1

Attachements                   : 文泉驿微米黑.ttc

DURATION                       : 01:35:28.220000000

NUMBER_OF_FRAMES               : 2701

NUMBER_OF_BYTES                : 173157

_STATISTICS_WRITING_APP        : mkvmerge v7.1.0 ('Good Love') 64bit built on Jul 27 2014 13:06:55

_STATISTICS_WRITING_DATE_UTC   : 2016-01-02 07:10:20

_STATISTICS_TAGS               : BPS DURATION NUMBER_OF_FRAMES NUMBER_OF_BYTES

Video

ID                             : 1

Format                         : AVC

Format/Info                    : Advanced Video Codec

Format profile                 : [email protected]

Format settings, CABAC         : Yes

Format settings, ReFrames      : 8 frames

Codec ID                       : V_MPEG4/ISO/AVC

Duration                       : 1h 39mn

Bit rate                       : 4 000 Kbps

Width                          : 1 280 pixels

Height                         : 720 pixels

Display aspect ratio           : 16:9

Frame rate mode                : Constant

Frame rate                     : 23.976 fps

Color space                    : YUV

Chroma subsampling             : 4:2:0

Bit depth                      : 8 bits

Scan type                      : Progressive

Bits/(Pixel*Frame)             : 0.181

Stream size                    : 2.72 GiB (84%)

Writing library                : x264 core 128 r2216+688+32 a17ff54 tMod [[email protected]:2:0 X86]

Encoding settings              : cabac=1 / ref=8 / deblock=1:-3:-3 / analyse=0x3:0x133 / me=umh / subme=10 / psy=1 / fade_compensate=0.00 / psy_rd=1.00:0.00 / mixed_ref=1 / me_range=48 / chroma_me=1 / trellis=2 / 8x8dct=1 / cqm=0 / deadzone=21,11 / fast_pskip=0 / chroma_qp_offset=-4 / threads=6 / lookahead_threads=1 / sliced_threads=0 / nr=0 / decimate=1 / interlaced=0 / bluray_compat=0 / constrained_intra=0 / fgo=0 / bframes=6 / b_pyramid=2 / b_adapt=2 / b_bias=0 / direct=1 / weightb=1 / open_gop=0 / weightp=2 / keyint=240 / keyint_min=23 / scenecut=40 / intra_refresh=0 / rc_lookahead=40 / rc=2pass / mbtree=1 / bitrate=4000 / ratetol=1.0 / qcomp=0.60 / qpmin=0 / qpmax=69 / qpstep=4 / cplxblur=20.0 / qblur=0.5 / vbv_maxrate=50000 / vbv_bufsize=50000 / nal_hrd=none / ip_ratio=1.40 / aq=1:1.00

Language                       : English

Default                        : Yes

Forced                         : No

DURATION                       : 01:39:19.954000000

NUMBER_OF_FRAMES               : 142896

NUMBER_OF_BYTES                : 2976865012

_STATISTICS_WRITING_APP        : mkvmerge v7.1.0 ('Good Love') 64bit built on Jul 27 2014 13:06:55

_STATISTICS_WRITING_DATE_UTC   : 2016-01-02 07:10:20

_STATISTICS_TAGS               : BPS DURATION NUMBER_OF_FRAMES NUMBER_OF_BYTES

Audio

ID                             : 2

Format                         : AC-3

Format/Info                    : Audio Coding 3

Mode extension                 : CM (complete main)

Format settings, Endianness    : Big

Codec ID                       : A_AC3

Duration                       : 1h 39mn

Bit rate mode                  : Constant

Bit rate                       : 640 Kbps

Channel(s)                     : 6 channels

Channel positions              : Front: L C R, Side: L R, LFE

Sampling rate                  : 48.0 KHz

Compression mode               : Lossy

Stream size                    : 455 MiB (14%)

Default                        : Yes

Forced                         : No

Text #1

ID                             : 3

Format                         : ASS

Codec ID                       : S_TEXT/ASS

Codec ID/Info                  : Advanced Sub Station Alpha

Compression mode               : Lossless

Title                          : 中上英下字幕ASS

Default                        : Yes

Forced                         : Yes

Text #2

ID                             : 4

Format                         : ASS

Codec ID                       : S_TEXT/ASS

Codec ID/Info                  : Advanced Sub Station Alpha

Compression mode               : Lossless

Title                          : 英上中下字幕ASS

Default                        : No

Forced                         : No

Text #3

ID                             : 5

Format                         : ASS

Codec ID                       : S_TEXT/ASS

Codec ID/Info                  : Advanced Sub Station Alpha

Compression mode               : Lossless

Title                          : 简体中文字幕ASS

Default                        : No

Forced                         : No

Text #4

ID                             : 6

Format                         : ASS

Codec ID                       : S_TEXT/ASS

Codec ID/Info                  : Advanced Sub Station Alpha

Compression mode               : Lossless

Title                          : 繁体中文字幕ASS

Default                        : No

Forced                         : No

Text #5

ID                             : 7

Format                         : ASS

Codec ID                       : S_TEXT/ASS

Codec ID/Info                  : Advanced Sub Station Alpha

Compression mode               : Lossless

Title                          : 英文字幕ASS

Default                        : No

Forced                         : No

《敲敲门》剧照-1

敲敲门下载地址:

注意:磁力链接请使用迅雷QQ旋风BitComet等下载软件打开下载。
如果上方未显示《敲敲门》下载链接,说明该资源受到用户投诉或者受版权方要求保护,不提供分享下载。
无极电影
  • 导航菜单
  • 热门榜单
猜你喜欢

本期惊悚片排行