未成年之欲/青少年欲望/破身之旅 Teen.Lust.2015.720p.WEB-DL.DD5.1.H264-RARBG

分享到:

《未成年之欲》海报

◎译 名 未成年之欲/青少年欲望/破身之旅

◎片 名 Teen Lust

◎年 代 2014

◎国 家 加拿大

◎类 别 喜剧

◎语 言 英语

◎上映日期 2014-09-10(多伦多电影节)

◎IMDb评分 5.3/10 from 138 users

◎片 长 80分钟

◎导 演 Blaine Thurier

◎主 演 加利·艾尔维斯 Cary Elwes

埃曼妞·沃吉亚 Emmanuelle Vaugier

达里尔·沙巴拉 Daryl Sabara

克里斯汀·鲍尔 Kristin Bauer

琼恩·柯 Jon Cor

乔恩·多尔 Jon Dore

阿里·塔塔林 Ali Tataryn

Annie Clark

Hilary Jardine

未成年之欲剧情介绍:

  主人公是一名不受欢迎的高中生,为了避免被自己的邪教父母献祭给魔鬼,他必须想方设法地失去处男之身。

Video

ID                           : 1

Format                       : AVC

Format/Info                     : Advanced Video Codec

Format profile                   : [email protected]

Format settings, CABAC              : No

Format settings, ReFrames            : 2 frames

Codec ID                       : V_MPEG4/ISO/AVC

Duration                       : 1h 20mn

Bit rate                       : 3 908 Kbps

Width                         : 1 280 pixels

Height                       : 538 pixels

Display aspect ratio               : 2.40:1

Frame rate mode                 : Constant

Frame rate                      : 23.976 fps

Color space                     : YUV

Chroma subsampling               : 4:2:0

Bit depth                     : 8 bits

Scan type                     : Progressive

Bits/(Pixel*Frame)               : 0.237

Stream size                     : 2.19 GiB (89%)

Title                         : Teen.Lust.2015.720p.WEB-DL.DD5.1.H264-RARBG

Language                       : English

Default                        : Yes

Forced                       : No

Color range                     : Limited

Color primaries                 : BT.709

Transfer characteristics           : BT.709

Matrix coefficients                : BT.709

Audio

ID                           : 2

Format                       : AC-3

Format/Info                     : Audio Coding 3

Mode extension                   : CM (complete main)

Format settings, Endianness         : Big

Codec ID                       : A_AC3

Duration                       : 1h 20mn

Bit rate mode                    : Constant

Bit rate                       : 384 Kbps

Channel(s)                      : 6 channels

Channel positions                 : Front: L C R, Side: L R, LFE

Sampling rate                    : 48.0 KHz

Compression mode                  : Lossy

Stream size                     : 220 MiB (9%)

Title                         : Teen.Lust.2015.720p.WEB-DL.DD5.1.H264-RARBG

Language                       : English

Default                        : Yes

Forced                       : No

Menu

00:00:00.000                   : en:Chapter 1

00:07:18.000                   : en:Chapter 2

00:12:26.000                   : en:Chapter 3

00:19:23.000                   : en:Chapter 4

00:25:49.000                   : en:Chapter 5

00:32:42.000                   : en:Chapter 6

00:40:22.000                   : en:Chapter 7

00:47:55.000                   : en:Chapter 8

00:55:55.000                   : en:Chapter 9

01:06:14.000                   : en:Chapter 10

01:13:25.000                   : en:Chapter 11

《未成年之欲》剧照-1

《未成年之欲》剧照-2

《未成年之欲》剧照-3

未成年之欲下载地址:

注意:磁力链接请使用迅雷QQ旋风BitComet等下载软件打开下载。
如果上方未显示《未成年之欲》下载链接,说明该资源受到用户投诉或者受版权方要求保护,不提供分享下载。
猜你喜欢

本期喜剧片排行