[道士下山]Monk Comes Down The Mountain 2015 1080p WEB-DL x264 AAC-SeeHD 内嵌中英字幕

分享到:

《道士下山》海报

◎译 名 道士下山

◎片 名 Monk Comes Down The Mountain / A Monk in a Floating World

◎年 代 2015-07-03(中国大陆)

◎国 家 中国大陆

◎类 别 喜剧 / 动作 / 奇幻 / 冒险 / 武侠 / 古装

◎语 言 汉语普通话

◎字 幕 中文/英文

◎IMDB评分 Ratings: 5.4/10 from 93 users

◎文件格式 x264 + AAC

◎视频尺寸 1920 x 800

◎文件大小 1CD 2.62 GiB

◎片 长 2h 00mn

◎导 演 陈凯歌  Kaige Chen

◎主 演 王宝强  Baoqiang Wang   何安下

郭富城  Aaron Kwok   周西宇

张震  Zhen Zhang   査老板

林志玲  Chiling Lin   玉珍

范伟  Wei Fan   崔道宁

元华  Wah Yuen   彭乾吾

王学圻  Xueqi Wang   如松长老

吴建豪  VanNess Wu   崔道融

陈国坤  Kwok Kuen Chan   赵心川

林雪  Suet Lam   赵笠人

李雪健  Xuejian Li   罗隐真人

董琦  Qi Dong   王香凝

房祖名  Jaycee Chan   彭七子

道士下山剧情介绍:

  民国时期,外敌入侵,军阀混战,乱世中各类江湖人物纷纷登场。不谙世事的小道

  士何安下(王宝强 饰),因为闹粮荒离开道观下了山偷偷下山,一脚踏入了光怪陆离的万丈红尘之中,遭遇到一系列诡异奇幻的人物和事件。无心之中,他被卷入太极门掌门之争,并与来华偷师的日本忍者对局。后中统特务欲招揽其做间谍,他却利用这个机会帮京剧武生查老板截杀特务头子报夺妻之恨。何安下周旋于中统、纳粹博士、倭寇和江湖之间,经历一系列匪夷所思的人物和事件。下山时他以一颗赤子之心面对一切,现在发现这个世界与他的想象有多幺不同,他终于明白了临下山前师傅说过的一句话:“不择手段非豪杰,不改初衷真英雄”。

Format                         : MPEG-4

Format profile                 : Base Media / Version 2

Codec ID                       : mp42

File size                      : 2.62 GiB

Duration                       : 2h 0mn

Overall bit rate mode          : Variable

Overall bit rate               : 3 113 Kbps

Encoded date                   : UTC 2015-08-01 16:57:57

Tagged date                    : UTC 2015-08-02 02:51:59

Writing application            : HandBrake rev6275 2015032699

Video

ID                             : 1

Format                         : AVC

Format/Info                    : Advanced Video Codec

Format profile                 : [email protected]

Format settings, CABAC         : Yes

Format settings, ReFrames      : 4 frames

Codec ID                       : avc1

Codec ID/Info                  : Advanced Video Coding

Duration                       : 2h 0mn

Bit rate                       : 2 973 Kbps

Width                          : 1 920 pixels

Height                         : 800 pixels

Display aspect ratio           : 2.40:1

Frame rate mode                : Constant

Frame rate                     : 24.000 fps

Color space                    : YUV

Chroma subsampling             : 4:2:0

Bit depth                      : 8 bits

Scan type                      : Progressive

Bits/(Pixel*Frame)             : 0.081

Stream size                    : 2.50 GiB (96%)

Writing library                : Provided by x264  :: H.264/MPEG-4 AVC codec -V 1.6.08

Encoded date                   : UTC 2015-08-01 16:57:57

Tagged date                    : UTC 2015-08-02 02:51:58

Color primaries                : BT.709

Transfer characteristics       : BT.709

Matrix coefficients            : BT.709

Audio

ID                             : 2

Format                         : AAC

Format/Info                    : Advanced Audio Codec

Format profile                 : LC

Codec ID                       : 40

Duration                       : 2h 0mn

Bit rate mode                  : Variable

Bit rate                       : 128 Kbps

Maximum bit rate               : 137 Kbps

Channel(s)                     : 2 channels

Channel positions              : Front: L R

Sampling rate                  : 44.1 KHz

Compression mode               : Lossy

Stream size                    : 110 MiB (4%)

Encoded date                   : UTC 2015-08-01 16:57:57

Tagged date                    : UTC 2015-08-02 02:51:58

道士下山影片截图:

《道士下山》剧照-1

《道士下山》剧照-2

《道士下山》剧照-3

《道士下山》剧照-4

《道士下山》剧照-5

道士下山下载地址:

注意:磁力链接请使用迅雷QQ旋风BitComet等下载软件打开下载。
如果上方未显示《道士下山》下载链接,说明该资源受到用户投诉或者受版权方要求保护,不提供分享下载。
猜你喜欢

本期喜剧片排行