[简单爱/简单·爱]Love Simply 2015 1080p WEBRip x264 AC3-SeeHD 内嵌中文

分享到:

《简单爱》海报

◎译 名 简单爱/简单。爱

◎片 名 Love Simply

◎年 代 2015-07-03(中国大陆)

◎国 家 中国大陆

◎类 别 爱情

◎语 言 汉语普通话

◎字 幕 中文

◎IMDB评分 (awaiting 5 votes) Reviews: write review

◎文件格式 x264 + AC3

◎视频尺寸 1912 x  792

◎文件大小 1CD 1.53 GiB

◎片 长 1h 27mn

◎导 演 崔龄燕 Lingyan Cui

◎主 演  许韶洋  Ambrose Hui

张琳 Lin Zhang

谢雨芩  Yuqin Xie

石铭熙      Mingxi Shi

赵檀      Tan Zhao

韩羽轩      Yuxuan Han

裘斯      Si Qiu

李洋      Yang Li

简单爱剧情介绍:

  凡子(许韶洋 饰) 曾是九十年代红级一时的流行歌星。自从娶了拜金主义名模黎丽,就失去了灵感,事业也一落千丈。几年前,黎丽抛下凡子和儿子,与他乐队的搭档乔奇私奔。

  肖晓凤(张琳 饰)来自地方歌舞团。被丈夫抛弃后,独自带着女儿妮球(谢雨芩 饰)来北京闯荡,在一家快递公司工作。然而,她心中重回舞台的梦想并没有因此而泯灭。

  晓凤7岁的女儿妮球从未得到过父爱。在学校“向父亲致敬”的活动中,为了遮掩自己没有父亲的事实,她急中生智撒了个谎,指着妈妈跟凡子的一张歌迷合

  影,称凡子就是她老爸,并承诺“爸爸”来学校演唱。为了女儿的小小心愿,小凤只好硬着头皮,满世界去寻找凡子,请他来救场……

General

Format                         : Matroska

Format version                 : Version 4 / Version 2

File size                      : 1.53 GiB

Duration                       : 1h 27mn

Overall bit rate               : 2 498 Kbps

Encoded date                   : UTC 2015-08-04 05:24:49

Writing application            : mkvmerge v7.1.0 ('Good Love') 32bit built on Jul 27 2014 12:59:18

Writing library                : libebml v1.3.0 + libmatroska v1.4.1

DURATION                       : 01:27:58.302000000

NUMBER_OF_FRAMES               : 151545

NUMBER_OF_BYTES                : 295584918

_STATISTICS_WRITING_APP        : mkvmerge v7.1.0 ('Good Love') 32bit built on Jul 27 2014 12:59:18

_STATISTICS_WRITING_DATE_UTC   : 2015-08-04 05:24:49

_STATISTICS_TAGS               : BPS DURATION NUMBER_OF_FRAMES NUMBER_OF_BYTES

Video

ID                             : 1

Format                         : AVC

Format/Info                    : Advanced Video Codec

Format profile                 : [email protected]

Format settings, CABAC         : Yes

Format settings, ReFrames      : 3 frames

Codec ID                       : V_MPEG4/ISO/AVC

Duration                       : 1h 27mn

Bit rate                       : 2 000 Kbps

Width                          : 1 912 pixels

Height                         : 792 pixels

Display aspect ratio           : 2.40:1

Frame rate mode                : Constant

Frame rate                     : 25.000 fps

Color space                    : YUV

Chroma subsampling             : 4:2:0

Bit depth                      : 8 bits

Scan type                      : Progressive

Bits/(Pixel*Frame)             : 0.053

Stream size                    : 1.23 GiB (80%)

Default                        : Yes

Forced                         : No

Audio

ID                             : 2

Format                         : AC-3

Format/Info                    : Audio Coding 3

Mode extension                 : CM (complete main)

Format settings, Endianness    : Big

Codec ID                       : A_AC3

Duration                       : 1h 27mn

Bit rate mode                  : Constant

Bit rate                       : 448 Kbps

Channel(s)                     : 2 channels

Channel positions              : Front: L R

Sampling rate                  : 44.1 KHz

Bit depth                      : 16 bits

Compression mode               : Lossy

Stream size                    : 282 MiB (18%)

Default                        : Yes

Forced                         : No

《简单爱》剧照-1

《简单爱》剧照-2

《简单爱》剧照-3

《简单爱》剧照-4

《简单爱》剧照-5

简单爱下载地址:

注意:磁力链接请使用迅雷QQ旋风BitComet等下载软件打开下载。
如果上方未显示《简单爱》下载链接,说明该资源受到用户投诉或者受版权方要求保护,不提供分享下载。
无极电影
  • 导航菜单
  • 热门榜单
猜你喜欢

本期爱情片排行