[小时代4:灵魂尽头]Tiny Time 4.0 2015 1080p WEB-DL x264 AAC-SeeHD 内嵌中英字幕

分享到:

《小时代4》海报

◎译 名 小时代4:灵魂尽头/小时代4

◎片 名 Tiny Time 4.0

◎年 代 2015-07-09(中国大陆)

◎国 家 中国大陆

◎类 别 喜剧 / 爱情

◎语 言 汉语普通话

◎字 幕 中文/英文

◎IMDB评分 Ratings: 2.4/10 from 52 users

◎文件格式 x264 + AAC

◎视频尺寸 1920 x 800

◎文件大小 1CD 2.55 GiB

◎片 长 1h 47mn

◎导 演 郭敬明  Jingming Guo

◎主 演 杨幂  Mini Yang   林萧

郭采洁  Amber Kuo   顾里

郭碧婷  Biting Guo   南湘

谢依霖  Sie Yi-Lin   唐宛如

陈学冬  Xuedong Chen   周崇光(陆烧)

锦荣  Vivian Dawson   宫洺

李贤宰  Hyun-Jae Lee   Neil

任佑明  Ming   顾准

姜潮  Jo   席城

王琳  Lin Wang   叶传萍

杜天皓  Tianhao Du   卫海

张籽沐  Zi Mu Zhang   顾里(幼年)

纪姿含  Zi Han Ji   林萧(幼年)

柴蔚  Wei Chai   林萧(童年)

汤甄      Zhen Tang           顾里(童年)

丹尼斯·凯恩      Kane Dennis           崇光(童年)

张汉盛      Hansheng Zhang           宫洺(童年)

姜洋乐      Yangle Jiang           南湘(童年)

小时代4剧情介绍:

  《小时代4》作为影片《小时代》系列的终结篇,故事依然围绕林萧、顾里、南 湘、唐宛如四姐妹展开,随着时间一点一滴的流逝,在这座看似平和,实则危机四伏、充满阴谋的城市,四个不同性格、不同价值观人生观的姐妹,相互依偎,先后 经历友情、爱情乃至亲情的巨大转变......

[indent]General

Format                         : MPEG-4

Format profile                 : Base Media / Version 2

Codec ID                       : mp42

File size                      : 2.55 GiB

Duration                       : 1h 56mn

Overall bit rate mode          : Variable

Overall bit rate               : 3 137 Kbps

Encoded date                   : UTC 2015-07-27 03:53:08

Tagged date                    : UTC 2015-07-27 10:19:10

Writing application            : HandBrake rev6275 2015032699

Video

ID                             : 1

Format                         : AVC

Format/Info                    : Advanced Video Codec

Format profile                 : [email protected]

Format settings, CABAC         : Yes

Format settings, ReFrames      : 4 frames

Codec ID                       : avc1

Codec ID/Info                  : Advanced Video Coding

Duration                       : 1h 56mn

Bit rate                       : 2 997 Kbps

Width                          : 1 920 pixels

Height                         : 800 pixels

Display aspect ratio           : 2.40:1

Frame rate mode                : Constant

Frame rate                     : 24.000 fps

Color space                    : YUV

Chroma subsampling             : 4:2:0

Bit depth                      : 8 bits

Scan type                      : Progressive

Bits/(Pixel*Frame)             : 0.081

Stream size                    : 2.43 GiB (96%)

Writing library                : Provided by x264  :: H.264/MPEG-4 AVC codec -V 1.6.08

Encoded date                   : UTC 2015-07-27 03:53:08

Tagged date                    : UTC 2015-07-27 10:19:10

Color primaries                : BT.709

Transfer characteristics       : BT.709

Matrix coefficients            : BT.709

Audio

ID                             : 2

Format                         : AAC

Format/Info                    : Advanced Audio Codec

Format profile                 : LC

Codec ID                       : 40

Duration                       : 1h 56mn

Bit rate mode                  : Variable

Bit rate                       : 128 Kbps

Maximum bit rate               : 137 Kbps

Channel(s)                     : 2 channels

Channel positions              : Front: L R

Sampling rate                  : 44.1 KHz

Compression mode               : Lossy

Stream size                    : 106 MiB (4%)

Encoded date                   : UTC 2015-07-27 03:53:08

Tagged date                    : UTC 2015-07-27 10:19:10

[/indent]

小时代4影片截图:

小时代4下载地址:

注意:磁力链接请使用迅雷QQ旋风BitComet等下载软件打开下载。
如果上方未显示《小时代4》下载链接,说明该资源受到用户投诉或者受版权方要求保护,不提供分享下载。
无极电影
  • 导航菜单
  • 热门榜单
猜你喜欢

本期喜剧片排行