《海鸥食堂》(Kamome Diner)[DVDRip]

分享到:

中文名: 海鸥食堂

英文名: Kamome Diner

资源格式: DVDRip

发行日期: 2006年

导演: 荻上直子 Naoko Ogigami

演员: Satomi Kobayashi

马库·佩托拉 Markku Peltola

Masako Motai

Hairi Katagiri

Jarkko Niemi

地区: 日本,芬兰

语言: 日语

海鸥食堂剧情介绍:

《海鸥食堂》海报

◎译 名 海鸥食堂

◎片 名 Kamome Shokudo / Kamome Diner

◎年 代 2006

◎国 家 芬兰/日本

◎类 别 剧情

◎语 言 日语

◎字 幕 中文

◎IMDB评分 7.3/10 (334 votes)

◎文件格式 XviD + AC3

◎视频尺寸 720 x 384

◎文件大小 2CD 2 x 49 x 15MB

◎片 长 101 Min

◎导 演 荻上直子 Naoko Ogigami

◎主 演 Satomi Kobayashi .... Sachie

马库·佩托拉 Markku Peltola

Masako Motai .... Masako

Hairi Katagiri .... Midori

Jarkko Niemi .... Tuomi

◎简 介

剧情:

  芬兰--最接近日本的欧洲国家,和东京的距离只有10小时机程。她的首都赫尔辛基是个风光如画的临海城市,当中有一所由日本女性开设的日式食堂 - 海鸥食堂。店主Sachie希望以最简单但却最让人感到温暖的传统手卷留住客人的心,只可惜事与愿违,海鸥食堂经常空空如也。一天,同样来自日本的Midori与Masako在食堂出现,为原本平静的日子带来阵阵涟漪。

幕后:

  由女导演荻上直子执导的最新作品《海鸥食堂》,是日本首部全于芬兰拍摄外景的电影,虽然上映戏院不多但却取得逾五亿日元的惊人票房。由实力派演员小林聪美、片桐Hairi及Motai Masako主演。

《海鸥食堂》剧照-1

《海鸥食堂》剧照-2

代码

General

Complete name : D:\Emule\Kamome.Diner.2006.DVDRip.XviD.AC3.CD1-JUPiT.avi

Format : AVI

Format/Info : Audio Video Interleave

File size : 700 MiB

Duration : 50mn 43s

Overall bit rate : 1 928 Kbps

Writing application : VirtualDubMod 1.5.10.2 (build 2540/release)

Writing library : VirtualDubMod build 2540/release

Video

Format : MPEG-4 Visual

Format profile : Streaming [email protected]

Format settings, BVOP : Yes

Format settings, QPel : No

Format settings, GMC : No warppoints

Format settings, Matrix : Default (H.263)

Muxing mode : Packed bitstream

Codec ID : XVID

Codec ID/Hint : XviD

Duration : 50mn 43s

Bit rate : 1 535 Kbps

Width : 720 pixels

Height : 384 pixels

Display aspect ratio : 1.875

Frame rate : 23.976 fps

Resolution : 24 bits

Colorimetry : 4:2:0

Scan type : Progressive

Bits/(Pixel*Frame) : 0.232

Stream size : 557 MiB (80%)

Writing library : XviD 1.0.3 (UTC 2004-12-20)

Audio

Format : AC-3

Format/Info : Audio Coding 3

Codec ID : 2000

Duration : 50mn 43s

Bit rate mode : Constant

Bit rate : 384 Kbps

Channel(s) : 2 channels

Channel positions : L R

Sampling rate : 48.0 KHz

Stream size : 139 MiB (20%)

Alignment : Split accross interleaves

Interleave, duration : 42 ms (1.00 video frame)

Interleave, preload duration : 500 ms

代码

General

Complete name : D:\Emule\Kamome.Diner.2006.DVDRip.XviD.AC3.CD2-JUPiT.avi

Format : AVI

Format/Info : Audio Video Interleave

File size : 701 MiB

Duration : 51mn 10s

Overall bit rate : 1 915 Kbps

Writing application : VirtualDubMod 1.5.10.2 (build 2540/release)

Writing library : VirtualDubMod build 2540/release

Video

Format : MPEG-4 Visual

Format profile : Streaming [email protected]

Format settings, BVOP : Yes

Format settings, QPel : No

Format settings, GMC : No warppoints

Format settings, Matrix : Default (H.263)

Muxing mode : Packed bitstream

Codec ID : XVID

Codec ID/Hint : XviD

Duration : 51mn 10s

Bit rate : 1 521 Kbps

Width : 720 pixels

Height : 384 pixels

Display aspect ratio : 1.875

Frame rate : 23.976 fps

Resolution : 24 bits

Colorimetry : 4:2:0

Scan type : Progressive

Bits/(Pixel*Frame) : 0.229

Stream size : 557 MiB (79%)

Writing library : XviD 1.0.3 (UTC 2004-12-20)

Audio

Format : AC-3

Format/Info : Audio Coding 3

Codec ID : 2000

Duration : 51mn 10s

Bit rate mode : Constant

Bit rate : 384 Kbps

Channel(s) : 2 channels

Channel positions : L R

Sampling rate : 48.0 KHz

Video delay : 22ms

Stream size : 141 MiB (20%)

Alignment : Split accross interleaves

Interleave, duration : 42 ms (1.00 video frame)

Interleave, preload duration : 500 ms

海鸥食堂下载地址:

注意:磁力链接请使用迅雷QQ旋风BitComet等下载软件打开下载。
如果上方未显示《海鸥食堂》下载链接,说明该资源受到用户投诉或者受版权方要求保护,不提供分享下载。
无极电影
  • 导航菜单
  • 热门榜单
猜你喜欢

本期剧情片排行